Colección Cantajuego Completa (DVDrip) Vol. 1-9 + Especiales (6):Fiesta en la aldea encantada,Una gr

>>Enlace para Descargar Colección Cantajuego Completa (DVDrip) Vol. 1-9 + Especiales (6):Fiesta en la aldea encantada,Una gr 1 Link<<

";


General Complete name : files/Cantajuego Vol. 1.avi Format : AVI Format/Info : Audio Video Interleave File size : 384 MiB Duration : 40mn 19s Overall bit rate : 1 332 Kbps Writing application : MEncoder dev-CVS-051014-22:10-3.4.4 Writing library : MPlayer Video ID : 0 Format : MPEG-4 Visual Format profile : Simple@L1 Format settings, BVOP : No Format settings, QPel : No Format settings, GMC : No warppoints Format settings, Matrix : Default (H.263) Codec ID : DX50 Codec ID/Hint : DivX 5 Duration : 40mn 19s Bit rate : 1 192 Kbps Width : 640 pixels Height : 480 pixels Display aspect ratio : 4:3 Frame rate : 25.000 fps Color space : YUV Chroma subsampling : 4:2:0 Bit depth : 8 bits Scan type : Progressive Compression mode : Lossy Bits/(Pixel*Frame) : 0.155 Stream size : 344 MiB (89%) Writing library : Lavc50.0.0 Audio ID : 1 Format : MPEG Audio Format version : Version 1 Format profile : Layer 3 Mode : Dual mono Codec ID : 55 Codec ID/Hint : MP3 Duration : 40mn 19s Bit rate mode : Constant Bit rate : 128 Kbps Channel(s) : 2 channels Sampling rate : 44.1 KHz Compression mode : Lossy Stream size : 36.9 MiB (10%) Alignment : Aligned on interleaves Interleave, duration : 26 ms (0.65 video frame) Interleave, preload duration : 809 ms Writing library : LAME3.97 (beta)
DESCARGA 1 solo link

>>Enlace para Descargar Colección Cantajuego Completa (DVDrip) Vol. 1-9 + Especiales (6):Fiesta en la aldea encantada,Una gr 1 Link<<

http://b61f8c50.megaline.co
General Complete name : files/Cantajuego Vol. 2.avi Format : AVI Format/Info : Audio Video Interleave File size : 870 MiB Duration : 41mn 31s Overall bit rate : 2 928 Kbps Video ID : 0 Format : MPEG-4 Visual Format profile : Advanced Simple@L5 Format settings, BVOP : 2 Format settings, QPel : No Format settings, GMC : No warppoints Format settings, Matrix : Default (H.263) Muxing mode : Packed bitstream Codec ID : XVID Codec ID/Hint : XviD Duration : 41mn 31s Bit rate : 1 507 Kbps Width : 720 pixels Height : 540 pixels Display aspect ratio : 4:3 Frame rate : 25.000 fps Color space : YUV Chroma subsampling : 4:2:0 Bit depth : 8 bits Scan type : Progressive Compression mode : Lossy Bits/(Pixel*Frame) : 0.155 Stream size : 448 MiB (51%) Writing library : XviD 1.1.0 (UTC 2005-11-22) Audio ID : 1 Format : PCM Format settings, Endianness : Little Format settings, Sign : Signed Codec ID : 1 Duration : 41mn 31s Bit rate mode : Constant Bit rate : 1 411.2 Kbps Channel(s) : 2 channels Sampling rate : 44.1 KHz Bit depth : 16 bits Stream size : 419 MiB (48%) Interleave, duration : 40 ms (1.00 video frame) Title : Audio Stream
DESCARGA 1 solo link
http://7cc35267.megaline.co
General Complete name : files/Cantajuego Vol. 3.mpg Format : MPEG-PS File size : 412 MiB Duration : 42mn 15s Overall bit rate : 1 362 Kbps Writing library : encoded by TMPGEnc (ver. 2.59.47.155) Video ID : 224 (0xE0) Format : MPEG Video Format version : Version 1 Format settings, BVOP : Yes Format settings, Matrix : Custom Duration : 42mn 15s Bit rate : 1 150 Kbps Width : 352 pixels Height : 288 pixels Display aspect ratio : 4:3 Frame rate : 25.000 fps Standard : PAL Color space : YUV Bit depth : 8 bits Scan type : Progressive Compression mode : Lossy Bits/(Pixel*Frame) : 0.454 Stream size : 345 MiB (84%) Writing library : TMPGEnc 2.59.47.155 Audio ID : 192 (0xC0) Format : MPEG Audio Format version : Version 1 Format profile : Layer 2 Duration : 42mn 15s Bit rate mode : Constant Bit rate : 192 Kbps Channel(s) : 2 channels Sampling rate : 44.1 KHz Compression mode : Lossy Stream size : 58.0 MiB (14%)
DESCARGA 1 solo link
http://b3c06949.megaline.co
General Complete name : files/Cantajuego Vol. 4.avi Format : AVI Format/Info : Audio Video Interleave File size : 447 MiB Duration : 38mn 7s Overall bit rate mode : Variable Overall bit rate : 1 638 Kbps Writing library : VirtualDub build 29808/release Video ID : 0 Format : MPEG-4 Visual Format profile : Advanced Simple@L5 Format settings, BVOP : 2 Format settings, QPel : No Format settings, GMC : No warppoints Format settings, Matrix : Default (H.263) Codec ID : XVID Codec ID/Hint : XviD Duration : 38mn 7s Bit rate : 1 498 Kbps Width : 720 pixels Height : 544 pixels Display aspect ratio : 4:3 Frame rate : 25.000 fps Color space : YUV Chroma subsampling : 4:2:0 Bit depth : 8 bits Scan type : Progressive Compression mode : Lossy Bits/(Pixel*Frame) : 0.153 Stream size : 409 MiB (91%) Writing library : XviD 1.1.2 (UTC 2006-11-01) Audio ID : 1 Format : MPEG Audio Format version : Version 1 Format profile : Layer 3 Codec ID : 55 Codec ID/Hint : MP3 Duration : 38mn 7s Bit rate mode : Variable Bit rate : 128 Kbps Channel(s) : 2 channels Sampling rate : 44.1 KHz Compression mode : Lossy Stream size : 34.8 MiB (8%) Alignment : Aligned on interleaves Interleave, duration : 26 ms (0.65 video frame) Interleave, preload duration : 150 ms Writing library : LAME3.92 Encoding settings : -m s -V 1 -q 2 -lowpass 19.5 –abr 128
1 LINK
http://3922edca.megaline.co
General Complete name : files/Cantajuego Vol. 5.avi Format : AVI Format/Info : Audio Video Interleave File size : 691 MiB Duration : 39mn 31s Overall bit rate : 2 443 Kbps Writing library : TMPGEnc 4.0 XPress Version. 4.2.3.193 Video ID : 0 Format : MPEG-4 Visual Format settings, BVOP : 3 Format settings, QPel : No Format settings, GMC : No warppoints Format settings, Matrix : Default (H.263) Muxing mode : Packed bitstream Codec ID : DX50 Codec ID/Hint : DivX 5 Duration : 39mn 31s Bit rate : 2 212 Kbps Width : 720 pixels Height : 576 pixels Display aspect ratio : 5:4 Frame rate : 25.000 fps Standard : PAL Color space : YUV Chroma subsampling : 4:2:0 Bit depth : 8 bits Scan type : Progressive Compression mode : Lossy Bits/(Pixel*Frame) : 0.213 Stream size : 625 MiB (91%) Writing library : DivX 6.8.0 (UTC 2007-12-04) Audio ID : 1 Format : MPEG Audio Format version : Version 1 Format profile : Layer 3 Mode : Joint stereo Codec ID : 55 Codec ID/Hint : MP3 Duration : 39mn 31s Bit rate mode : Constant Bit rate : 224 Kbps Channel(s) : 2 channels Sampling rate : 48.0 KHz Compression mode : Lossy Stream size : 63.3 MiB (9%) Alignment : Aligned on interleaves Interleave, duration : 250 ms (6.25 video frames) Interleave, preload duration : 216 ms
1 LINK
http://737de898.megaline.co
General Complete name : files/Cantajuego Vol. 6.avi Format : AVI Format/Info : Audio Video Interleave File size : 939 MiB Duration : 37mn 54s Overall bit rate : 3 464 Kbps Writing application : MEncoder dev-SVN-r23673-4.2.0 Writing library : MPlayer Video ID : 0 Format : MPEG-4 Visual Format profile : Simple@L1 Format settings, BVOP : No Format settings, QPel : No Format settings, GMC : No warppoints Format settings, Matrix : Default (H.263) Codec ID : DIVX Codec ID/Info : Project Mayo Codec ID/Hint : DivX 4 Duration : 37mn 54s Bit rate : 3 267 Kbps Width : 720 pixels Height : 576 pixels Display aspect ratio : 5:4 Frame rate : 23.976 fps Standard : PAL Color space : YUV Chroma subsampling : 4:2:0 Bit depth : 8 bits Scan type : Progressive Compression mode : Lossy Bits/(Pixel*Frame) : 0.329 Stream size : 886 MiB (94%) Writing library : Lavc51.40.4 Audio ID : 1 Format : AC-3 Format/Info : Audio Coding 3 Mode extension : CM (complete main) Codec ID : 2000 Duration : 37mn 54s Bit rate mode : Constant Bit rate : 192 Kbps Channel(s) : 2 channels Channel positions : Front: L R Sampling rate : 48.0 KHz Bit depth : 16 bits Compression mode : Lossy Stream size : 52.1 MiB (6%) Alignment : Split accross interleaves Interleave, duration : 500 ms (11.99 video frames) Interleave, preload duration : 500 ms
1 LINK
http://f31d791e.megaline.co
General Complete name : files/Cantajuego Vol. 7.avi Format : AVI Format/Info : Audio Video Interleave Format profile : OpenDML File size : 1.12 GiB Duration : 43mn 37s Overall bit rate : 3 665 Kbps Writing application : Lavf51.12.1 Video ID : 0 Format : MPEG-4 Visual Format profile : Simple@L1 Format settings, BVOP : No Format settings, QPel : No Format settings, GMC : No warppoints Format settings, Matrix : Default (H.263) Codec ID : DX50 Codec ID/Hint : DivX 5 Duration : 43mn 25s Bit rate : 3 537 Kbps Width : 720 pixels Height : 408 pixels Display aspect ratio : 16:9 Frame rate : 25.000 fps Color space : YUV Chroma subsampling : 4:2:0 Bit depth : 8 bits Scan type : Progressive Compression mode : Lossy Bits/(Pixel*Frame) : 0.482 Stream size : 1.07 GiB (96%) Writing library : Lavc51.40.4 Audio ID : 1 Format : MPEG Audio Format version : Version 1 Format profile : Layer 3 Mode : Joint stereo Mode extension : MS Stereo Codec ID : 55 Codec ID/Hint : MP3 Duration : 43mn 37s Bit rate mode : Constant Bit rate : 128 Kbps Channel(s) : 2 channels Sampling rate : 44.1 KHz Compression mode : Lossy Stream size : 39.9 MiB (3%) Alignment : Aligned on interleaves Interleave, duration : 26 ms (0.65 video frame) Writing library : LAME3.97
3 LINKS
http://0d6f0ae7.megaline.co
General Complete name : files/Cantajuego Vol. 8.avi Format : AVI Format/Info : Audio Video Interleave File size : 723 MiB Duration : 48mn 44s Overall bit rate : 2 074 Kbps Writing application : MEncoder SVN-r30881(20100311-gcc4.3.3) Writing library : MPlayer Video ID : 0 Format : MPEG-4 Visual Format profile : Advanced Simple@L5 Format settings, BVOP : 2 Format settings, QPel : No Format settings, GMC : No warppoints Format settings, Matrix : Default (H.263) Codec ID : XVID Codec ID/Hint : XviD Duration : 48mn 44s Bit rate : 1 933 Kbps Width : 720 pixels Height : 404 pixels Display aspect ratio : 16:9 Frame rate : 29.970 fps Color space : YUV Chroma subsampling : 4:2:0 Bit depth : 8 bits Scan type : Progressive Compression mode : Lossy Bits/(Pixel*Frame) : 0.222 Stream size : 674 MiB (93%) Writing library : XviD 1.2.1 (UTC 2008-12-04) Audio ID : 1 Format : MPEG Audio Format version : Version 1 Format profile : Layer 3 Mode : Joint stereo Codec ID : 55 Codec ID/Hint : MP3 Duration : 48mn 44s Bit rate mode : Constant Bit rate : 128 Kbps Channel(s) : 2 channels Sampling rate : 44.1 KHz Compression mode : Lossy Delay relative to video : 33ms Stream size : 44.6 MiB (6%) Alignment : Aligned on interleaves Interleave, duration : 26 ms (0.78 video frame) Interleave, preload duration : 522 ms Writing library : LAME3.98
1 LINK
http://cdcec720.megaline.co
General Complete name : files/Cantajuego vol. 9.avi Format : AVI Format/Info : Audio Video Interleave File size : 466 MiB Duration : 46mn 35s Overall bit rate : 1 397 Kbps Video ID : 0 Format : AVC Format/Info : Advanced Video Codec Format profile : Main@L5.1 Format settings, CABAC : Yes Format settings, ReFrames : 1 frame Codec ID : H264 Duration : 46mn 35s Bit rate : 1 196 Kbps Width : 1 024 pixels Height : 576 pixels Display aspect ratio : 16:9 Frame rate : 25.000 fps Color space : YUV Chroma subsampling : 4:2:0 Bit depth : 8 bits Scan type : Progressive Bits/(Pixel*Frame) : 0.081 Stream size : 398 MiB (86%) Audio ID : 1 Format : MPEG Audio Format version : Version 1 Format profile : Layer 3 Codec ID : 55 Codec ID/Hint : MP3 Duration : 46mn 35s Bit rate mode : Constant Bit rate : 192 Kbps Channel(s) : 2 channels Sampling rate : 44.1 KHz Compression mode : Lossy Stream size : 64.0 MiB (14%) Alignment : Split accross interleaves Interleave, duration : 40 ms (1.00 video frame) Writing library : LAMELAME_MAJOR_VERSI
1LINK
http://c820d67d.megaline.co
Una granja con encanto (2010)
Este año 2011 en los cines tenemos a Cantajuego una granja con encanto : Sinopsis El Circo del Payaso Tallarín llega al pueblo, y todos están muy contentos y emocionados con la visita. También lo están los habitantes de una granja cercana, que colaborarán alojando artistas y visitantes para la gran actuación. Todo está listo y preparado, pero nadie esperaba que las fuertes lluvias inutilizaran el terreno donde debía montarse la carpa del circo. A partir de esta noticia, todos los amigos y amigas de la granja propondrán ideas y soluciones para que la función se lleve a cabo con éxito.
01 – Lluvia y Sol
02 – La Primavera
03 – Comidita Fresca y Sana
04 – Digo Ciao
05 – La Chata Merengüela
06 – Dos Austríacos
07 – Buby la Ardilla
08 – Soy Periodista
09 – Tengo una Vaca Lechera
10 – Me Gusta mi Ropa
11 – El Twist de los Alimentos
12 – La Tía Esther Nura
13 – El Caballo Verde
14 – Susanita tiene un Ratón
15 – Coco en la Cueva y Pepe en la Montaña
16 – El Arca de Noé
17 – Ci Vuole un Fiore
18 – En la Granja de Pepito
19 – El Payaso Tallarín
20 – Mi Circo
21 – Soy una Taza

Enlaces de Descarga
General Complete name : files/Cantajuego – Una granja con encanto 2011.avi Format : AVI Format/Info : Audio Video Interleave Format profile : OpenDML File size : 1.28 GiB Duration : 1h 12mn Overall bit rate : 2 539 Kbps Writing application : Lavf51.12.1 Video ID : 0 Format : MPEG-4 Visual Format profile : Simple@L1 Format settings, BVOP : No Format settings, QPel : No Format settings, GMC : No warppoints Format settings, Matrix : Default (H.263) Codec ID : DX50 Codec ID/Hint : DivX 5 Duration : 1h 12mn Bit rate : 2 395 Kbps Width : 720 pixels Height : 576 pixels Display aspect ratio : 5:4 Frame rate : 29.970 fps Standard : PAL Color space : YUV Chroma subsampling : 4:2:0 Bit depth : 8 bits Scan type : Progressive Compression mode : Lossy Bits/(Pixel*Frame) : 0.193 Stream size : 1.21 GiB (94%) Writing library : Lavc51.40.4 Audio ID : 1 Format : MPEG Audio Format version : Version 1 Format profile : Layer 3 Mode : Joint stereo Mode extension : MS Stereo Codec ID : 55 Codec ID/Hint : MP3 Duration : 1h 12mn Bit rate mode : Constant Bit rate : 128 Kbps Channel(s) : 2 channels Sampling rate : 44.1 KHz Compression mode : Lossy Stream size : 66.2 MiB (5%) Alignment : Aligned on interleaves Interleave, duration : 26 ms (0.78 video frame)
3 LINKS
http://92a0339f.megaline.co
General Complete name : files/CantaJuego_Navideno.avi Format : AVI Format/Info : Audio Video Interleave File size : 612 MiB Duration : 39mn 25s Overall bit rate : 2 171 Kbps Video ID : 0 Format : MPEG-4 Visual Format profile : Simple@L1 Format settings, BVOP : No Format settings, QPel : No Format settings, GMC : No warppoints Format settings, Matrix : Default (H.263) Codec ID : FMP4 Duration : 39mn 25s Bit rate : 1 998 Kbps Width : 800 pixels Height : 600 pixels Display aspect ratio : 4:3 Frame rate : 24.000 fps Color space : YUV Chroma subsampling : 4:2:0 Bit depth : 8 bits Scan type : Progressive Compression mode : Lossy Bits/(Pixel*Frame) : 0.173 Stream size : 563 MiB (92%) Audio ID : 1 Format : MPEG Audio Format version : Version 1 Format profile : Layer 3 Mode : Joint stereo Mode extension : MS Stereo Codec ID : 55 Codec ID/Hint : MP3 Duration : 39mn 24s Bit rate mode : Constant Bit rate : 160 Kbps Channel(s) : 2 channels Sampling rate : 48.0 KHz Compression mode : Lossy Stream size : 45.1 MiB (7%) Alignment : Aligned on interleaves Interleave, duration : 24 ms (0.58 video frame) Interleave, preload duration : 48 ms Writing library : LAME3.98 (beta)
1 LINK
http://39b29880.megaline.co
Fiesta en la aldea encantada (2011)
General Complete name : files/CantaJuego_-_Fiesta_en_la_Aldea_Encantada_(2012).avi Format : AVI Format/Info : Audio Video Interleave Format profile : OpenDML File size : 1.85 GiB Duration : 1h 44mn Overall bit rate : 2 537 Kbps Writing application : Lavf51.12.1 Video ID : 0 Format : xvid Codec ID : xvid Duration : 1h 44mn Bit rate : 2 397 Kbps Width : 1 024 pixels Height : 576 pixels Display aspect ratio : 16:9 Frame rate : 23.976 fps Bits/(Pixel*Frame) : 0.169 Stream size : 1.75 GiB (94%) Audio ID : 1 Format : MPEG Audio Format version : Version 1 Format profile : Layer 3 Mode : Joint stereo Mode extension : MS Stereo Codec ID : 55 Codec ID/Hint : MP3 Duration : 1h 44mn Bit rate mode : Constant Bit rate : 128 Kbps Channel(s) : 2 channels Sampling rate : 44.1 KHz Compression mode : Lossy Stream size : 95.5 MiB (5%) Alignment : Aligned on interleaves Interleave, duration : 26 ms (0.63 video frame) Writing library : LAME3.97
4 LINKS
http://ddb782c8.megaline.co
Regalo de Corazon (2012)
Llegan las Navidades, entrañables fechas en las que además de reunirnos con nuestra familia y amigos, pensamos y recordamos a muchas personas que están lejos en la distancia, pero muy cerca del corazón. Por eso los CantaJuegos han decido juntar regalos y compartirlos con todos sus amigos y amigas del mundo, reuniéndose en su cole para preparar juegos y canciones, música y color, y sobre todo alegría para compartir y transmitir un mensaje de amor y amistad.
Enlaces de Descarga
General Complete name : files/Cantajuego Regalo De Corazon.avi Format : AVI Format/Info : Audio Video Interleave File size : 362 MiB Duration : 37mn 50s Overall bit rate : 1 336 Kbps Writing application : Magic0515 Video ID : 0 Format : MPEG-4 Visual Format profile : Advanced Simple@L4 Format settings, BVOP : No Format settings, QPel : No Format settings, GMC : No warppoints Format settings, Matrix : Default (H.263) Codec ID : XVID Codec ID/Hint : XviD Duration : 37mn 50s Bit rate : 1 195 Kbps Width : 640 pixels Height : 360 pixels Display aspect ratio : 16:9 Frame rate : 25.000 fps Color space : YUV Chroma subsampling : 4:2:0 Bit depth : 8 bits Scan type : Progressive Compression mode : Lossy Bits/(Pixel*Frame) : 0.208 Stream size : 324 MiB (89%) Writing library : Magic0432 Audio ID : 1 Format : MPEG Audio Format version : Version 1 Format profile : Layer 3 Mode : Joint stereo Mode extension : MS Stereo Codec ID : 55 Codec ID/Hint : MP3 Duration : 37mn 50s Bit rate mode : Constant Bit rate : 128 Kbps Channel(s) : 2 channels Sampling rate : 44.1 KHz Compression mode : Lossy Stream size : 34.7 MiB (10%) Alignment : Aligned on interleaves Interleave, duration : 26 ms (0.65 video frame) Writing library : LAME3.97
1 LINK
http://752eeb9c.megaline.co

General Complete name : files/Cantajuego Especial reyesTVE.avi Format : DivX Format/Info : Hack of AVI File size : 553 MiB Duration : 47mn 3s Overall bit rate : 1 642 Kbps Video ID : 0 Format : MPEG-4 Visual Format settings, BVOP : No Format settings, QPel : No Format settings, GMC : No warppoints Format settings, Matrix : Default (H.263) Codec ID : DX50 Codec ID/Hint : DivX 5 Duration : 47mn 3s Bit rate : 1 505 Kbps Width : 720 pixels Height : 480 pixels Display aspect ratio : 3:2 Frame rate : 25.000 fps Standard : NTSC Color space : YUV Chroma subsampling : 4:2:0 Bit depth : 8 bits Scan type : Interlaced Scan order : Top Field First Compression mode : Lossy Bits/(Pixel*Frame) : 0.174 Stream size : 506 MiB (92%) Title : Video Writing library : DivX 6.2.5 (UTC 2006-06-16) Audio ID : 1 Format : MPEG Audio Format version : Version 1 Format profile : Layer 3 Codec ID : 55 Codec ID/Hint : MP3 Duration : 47mn 3s Bit rate mode : Constant Bit rate : 128 Kbps Channel(s) : 2 channels Sampling rate : 48.0 KHz Compression mode : Lossy Stream size : 43.1 MiB (8%) Alignment : Split accross interleaves Interleave, duration : 40 ms (1.00 video frame) Interleave, preload duration : 50 ms Title : Audio
1 LINK
http://e5f7c06f.megaline.co

General Complete name : files/Ciudad Arcoiris.avi Format : AVI Format/Info : Audio Video Interleave File size : 1.05 GiB Duration : 1h 6mn Overall bit rate : 2 275 Kbps Movie name : VTS_03_1 Writing application : Lavf52.78.4 Writing library : Boilsoft AVI tool build 1/release Video ID : 0 Format : MPEG-4 Visual Format profile : Advanced Simple@L5 Format settings, BVOP : 2 Format settings, QPel : No Format settings, GMC : No warppoints Format settings, Matrix : Default (H.263) Muxing mode : Packed bitstream Codec ID : XVID Codec ID/Hint : XviD Duration : 1h 6mn Bit rate : 2 073 Kbps Width : 720 pixels Height : 576 pixels Display aspect ratio : 5:4 Frame rate : 25.000 fps Standard : PAL Color space : YUV Chroma subsampling : 4:2:0 Bit depth : 8 bits Scan type : Progressive Compression mode : Lossy Bits/(Pixel*Frame) : 0.200 Stream size : 979 MiB (91%) Writing library : XviD 1.2.1 (UTC 2008-12-04) Audio ID : 1 Format : AC-3 Format/Info : Audio Coding 3 Mode extension : CM (complete main) Codec ID : 2000 Duration : 1h 6mn Bit rate mode : Constant Bit rate : 192 Kbps Channel(s) : 2 channels Channel positions : Front: L R Sampling rate : 48.0 KHz Bit depth : 16 bits Compression mode : Lossy Stream size : 90.7 MiB (8%) Alignment : Split accross interleaves Interleave, duration : 40 ms (1.00 video frame) Interleave, preload duration : 500 ms
3 links
http://d0684f85.megaline.co

Descargar

  • cantajuego vol 1 avi 1 link
  • cantajuego vol 6 dvdrip