Home » Peliculas » La bella durmiente [BDrip][1080p][DTS-AC3 5.1-Latino DTS-Ingles+Subs][Animacion] [195

La bella durmiente [BDrip][1080p][DTS-AC3 5.1-Latino DTS-Ingles+Subs][Animacion] [195

octubre 1st, 2013 Peliculas

Título original
Disney’s Sleeping Beauty
Año
1959
Duración
75 min.
País
[Estados Unidos] Estados Unidos
Director
Clyde Geronimi
Guión
Erdman Penner (Cuento: Charles Perrault)
Música
Peter Tchaikovsky, George Bruns
Fotografía
Animation
Reparto
Animation
Productora
Walt Disney Pictures
Género
Animación. Fantástico. Romance. Infantil | Fantasía medieval. Cuentos
Sinopsis
Había una vez dos reyes que esperaban con alegría el nacimiento de su primera hija, a la que llamarían Aurora. Para celebrarlo, organizaron una fiesta a la que invitaron a todos los habitantes del reino. Pero olvidaron invitar a la malvada bruja Maléfica que, enfurecida, lanzó un terrible hechizo sobre la princesa: el día de su décimosexto cumpleaños, se pincharía con el uso de una rueca y moriría. Pero sus tres divertidas hadas madrinas descubren una forma de romper el maleficio: no morirá, permanecerá dormida hasta que un valiente príncipe la bese… (FILMAFFINITY)

Mediainfo:

Código:

General
Format : Matroska
Format version : Version 4 / Version 2
File size : 7.70 GiB
Duration : 1h 15mn
Overall bit rate : 14.5 Mbps
Movie name : La bella durmiente
Encoded date : UTC 2013-09-22 14:50:13
Writing application : mkvmerge v6.4.1 (‘Omega Point’) built on Sep 16 2013 22:05:10
Writing library : libebml v1.3.0 + libmatroska v1.4.1
Video
ID : 1
Format : AVC
Format/Info : Advanced Video Codec
Format profile : High@L4.1
Format settings, CABAC : Yes
Format settings, ReFrames : 4 frames
Codec ID : V_MPEG4/ISO/AVC
Duration : 1h 15mn
Bit rate : 11.1 Mbps
Width : 1 920 pixels
Height : 752 pixels
Display aspect ratio : 2.553
Frame rate mode : Constant
Frame rate : 23.976 fps
Color space : YUV
Chroma subsampling : 4:2:0
Bit depth : 8 bits
Scan type : Progressive
Bits/(Pixel*Frame) : 0.326
Stream size : 5.78 GiB (75%)
Title : La bella durmiente
Writing library : x264 core 104 r1675 2484aa0
Encoding settings : cabac=1 / ref=4 / deblock=1:0:0 / analyse=0×3:0×133 / me=umh / subme=10 / psy=1 / psy_rd=1.00:0.00 / mixed_ref=1 / me_range=24 / chroma_me=1 / trellis=2 / 8x8dct=1 / cqm=0 / deadzone=21,11 / fast_pskip=1 / chroma_qp_offset=-2 / threads=6 / sliced_threads=0 / nr=0 / decimate=1 / interlaced=0 / constrained_intra=0 / bframes=8 / b_pyramid=2 / b_adapt=2 / b_bias=0 / direct=3 / weightb=1 / open_gop=0 / weightp=2 / keyint=250 / keyint_min=23 / scenecut=40 / intra_refresh=0 / rc_lookahead=60 / rc=2pass / mbtree=1 / bitrate=11294 / ratetol=1.0 / qcomp=0.60 / qpmin=10 / qpmax=51 / qpstep=4 / cplxblur=20.0 / qblur=0.5 / ip_ratio=1.40 / aq=1:1.00
Default : Yes
Forced : No
Audio #1
ID : 2
Format : DTS
Format/Info : Digital Theater Systems
Mode : 16
Format settings, Endianness : Big
Codec ID : A_DTS
Duration : 1h 15mn
Bit rate mode : Constant
Bit rate : 1 509 Kbps
Channel(s) : 6 channels
Channel positions : Front: L C R, Side: L R, LFE
Sampling rate : 48.0 KHz
Bit depth : 24 bits
Compression mode : Lossy
Stream size : 812 MiB (10%)
Title : Español latino (2004) DTS 5.1
Language : Spanish
Default : Yes
Forced : No
Audio #2
ID : 3
Format : AC-3
Format/Info : Audio Coding 3
Mode extension : CM (complete main)
Format settings, Endianness : Big
Codec ID : A_AC3
Duration : 1h 15mn
Bit rate mode : Constant
Bit rate : 448 Kbps
Channel(s) : 2 channels
Channel positions : Front: L R
Sampling rate : 48.0 KHz
Bit depth : 16 bits
Compression mode : Lossy
Delay relative to video : 4ms
Stream size : 241 MiB (3%)
Title : Español latino (1959) AC3 2.0
Language : Spanish
Default : No
Forced : No
Audio #3
ID : 4
Format : DTS
Format/Info : Digital Theater Systems
Mode : 16
Format settings, Endianness : Big
Codec ID : A_DTS
Duration : 1h 15mn
Bit rate mode : Constant
Bit rate : 1 509 Kbps
Channel(s) : 6 channels
Channel positions : Front: L C R, Side: L R, LFE
Sampling rate : 48.0 KHz
Bit depth : 24 bits
Compression mode : Lossy
Stream size : 812 MiB (10%)
Title : Inglés DTS 5.1
Language : English
Default : No
Forced : No
Text #1
ID : 5
Format : UTF-8
Codec ID : S_TEXT/UTF8
Codec ID/Info : UTF-8 Plain Text
Title : sub.forz.es
Language : Spanish
Default : Yes
Forced : Yes
Text #2
ID : 6
Format : VobSub
Muxing mode : zlib
Codec ID : S_VOBSUB
Codec ID/Info : The same subtitle format used on DVDs
Title : Español latino (forzados)
Language : Spanish
Default : No
Forced : Yes
Text #3
ID : 7
Format : VobSub
Muxing mode : zlib
Codec ID : S_VOBSUB
Codec ID/Info : The same subtitle format used on DVDs
Title : Español latino
Language : Spanish
Default : No
Forced : No
Text #4
ID : 8
Format : VobSub
Muxing mode : zlib
Codec ID : S_VOBSUB
Codec ID/Info : The same subtitle format used on DVDs
Title : Inglés
Language : English
Default : No
Forced : No
Capturas:

Descarga(Uploaded + Bitshare):

[HIDE]Uploaded:

Código:

http://uploaded.net/file/1cz92evv/La%20Bella%20durmiente%201080.mkv.7z.001

http://uploaded.net/file/32gsxn5z/La%20Bella%20durmiente%201080.mkv.7z.002

http://uploaded.net/file/brg1syzo/La%20Bella%20durmiente%201080.mkv.7z.003

http://uploaded.net/file/iy7ylzvi/La%20Bella%20durmiente%201080.mkv.7z.004

http://uploaded.net/file/65p11z8g/La%20Bella%20durmiente%201080.mkv.7z.005

http://uploaded.net/file/92w3in9v/La%20Bella%20durmiente%201080.mkv.7z.006

http://uploaded.net/file/kahmmon7/La%20Bella%20durmiente%201080.mkv.7z.007

http://uploaded.net/file/skzzltr5/La%20Bella%20durmiente%201080.mkv.7z.008

http://uploaded.net/file/6incrkyn/La%20Bella%20durmiente%201080.mkv.7z.009
Bitshare.com:

Código:

http://bitshare.com/files/8qrusmkt/La-Bella-durmiente-1080.mkv.7z.001.html

http://bitshare.com/files/wuagx7k1/La-Bella-durmiente-1080.mkv.7z.002.html

http://bitshare.com/files/8tj3vzl7/La-Bella-durmiente-1080.mkv.7z.003.html

http://bitshare.com/files/wbkv0te0/La-Bella-durmiente-1080.mkv.7z.004.html

http://bitshare.com/files/onwtr7ue/La-Bella-durmiente-1080.mkv.7z.005.html

http://bitshare.com/files/1ap9ck8q/La-Bella-durmiente-1080.mkv.7z.006.html

http://bitshare.com/files/66nktbot/La-Bella-durmiente-1080.mkv.7z.007.html

http://bitshare.com/files/srzyi0zx/La-Bella-durmiente-1080.mkv.7z.008.html

http://bitshare.com/files/kj5car2z/La-Bella-durmiente-1080.mkv.7z.009.html
[/HIDE]

Etiquetas

malefica mega co nz/|freakshare com/files/|rapidshare com/files|bitshare com/files/|depositfiles com/files|www uploadstation com/file/|www wupload com/file/|mediafire com/|uploaded to|ul to/|gigasize com|filefactory com/file/|letitbit net/download|sharefl, malefica mega co nz/, malefica mkv, descarga la bella durmiente mkv, malefica 720p bdrip, malefica torrent, malefica torrent audio latino, torrent malefica latino brrip

Share this post to your friends!
facebook
twitter
stumbleupon
Delicious
reddit
Digg